DJ DR3 – Romanian Mix Volume 5 (2013)

Romanian House Music Super Mix Volume 5 will make you feel good.  Look into the model’s eyes while listening to the music from the start of the Mix and you will understand.

I would appreciate it if you clicked the advertising links whenever possible.  It helps bring in a little cash. Thank you in advance.

This Mix has over 1 million views on YouTube proving to be a huge success. Enjoy!

Romanian House Music Super Mix Volume 5

Non-stop Energy2013


PLAYLIST:

1. DJ DR3 – Intro – Mario Bischin ft. Revolt klan – I.D lover
2. DeepSystem feat Andy M – Don’t Go 00:35:00
3. Aiden Rey – Another Life Story 05:06:00
4. Emrah Türken ft. X-Project – Blue Dreams 08:58:00
5. Da Fleiva ft. Ellise – Dame La Luna 13:08:00
6. Amelie – Esta Noche (Mas Y Mas) 16:53:00
7. Dj Project – Miracle Love 20:52:00
8. Christina Matsa – My Reason 26:30:00
9. Deep Zone Project – Made for loving you 30:41:00
10. Kalwi and Remi feat Nadia Gattas – Africa 36:21:00
11. Allexinno & Starchild – Joanna 01 40:18:00
12. Christina Matsa – If You Wanna 45:03:00
13. Stereo Light – Obsession 49:30:00
14. Roy White & Ryssa – Tu amor 52:42:00
15. Northway – Come To Me 54:42:00
16. Dj Project ft Giulia – Regrete 57:42:00
17. Morra – One Love 62:36:00
18. Liviu Hodor feat. Mona – No Stress 66:11:00

Buy Volume 5 on CD

    Buy Volume 5 CD

           $9.99




(Ships Free Worldwide)
Free MP3 Download Here

 

Rate This Mix

17 thoughts on “DJ DR3 – Romanian Mix Volume 5 (2013)

    1. A. Xaki, the original MP3 is linked here so the quality should in theory be better than the YouTube video which was made with the linked MP3.

      Try downloading the MP3 and playing it either on your PC or on another device.

  1. Hello DR3!

    I really enjoyed this album.

    The songs that I liked, (tracks 1, 3, 8 and 16) were better than the originals.

    Too bad the band 1 was very short.

    Also liked the fact u provide links of the tracks and their respective authors.

    So continue with this work.

    Brazilian Greetings! Viva Romanian dance! 🙂

  2. My cue file to splitt the musik correct 🙂

    FILE “DJ DR3 – Romanian House Music Super Mix Volume 5 (2013) http://www.DJDR3.com.mp3” WAVE
    TRACK 01 AUDIO
    TITLE “Intro ”
    PERFORMER “Mario Bischin ft. Revolt klan – I.D lover”
    INDEX 01 00:00:00

    TRACK 02 AUDIO
    TITLE “Don’t Go”
    PERFORMER “DeepSystem feat Andy M”
    INDEX 01 00:36:00

    TRACK 03 AUDIO
    TITLE ” Another Life Story”
    PERFORMER “Aiden Rey”
    INDEX 01 05:07:00
    TRACK 04 AUDIO
    TITLE “Blue Dreams ”
    PERFORMER “Emrah Türken ft. X-Project”
    INDEX 01 08:30:00
    TRACK 05 AUDIO
    TITLE “Dame La Luna ”
    PERFORMER ” Da Fleiva ft. Ellise ”
    INDEX 01 13:10:00
    TRACK 06 AUDIO
    TITLE “Esta Noche (Mas Y Mas) ”
    PERFORMER ” Amelie”
    INDEX 01 16:54:00
    TRACK 07 AUDIO
    TITLE ” Miracle Love ”
    PERFORMER ” Dj Project”
    INDEX 01 20:51:00
    TRACK 08 AUDIO
    TITLE “My Reason”
    PERFORMER “Christina Matsa”
    INDEX 01 26:17:00
    TRACK 09 AUDIO
    TITLE “Made for loving you ”
    PERFORMER ” Deep Zone Project ”
    INDEX 01 30:35:00
    TRACK 10 AUDIO
    TITLE “Africa ”
    PERFORMER “Kalwi and Remi feat Nadia Gattas ”
    INDEX 01 36:22:00
    TRACK 11 AUDIO
    TITLE “Joanna 01 ”
    PERFORMER ” Allexinno & Starchild”
    INDEX 01 40:19:50
    TRACK 12 AUDIO
    TITLE “If You Wanna ”
    PERFORMER ” Christina Matsa ”
    INDEX 01 45:04:00
    TRACK 13 AUDIO
    TITLE “Obsession ”
    PERFORMER ” Stereo Light ”
    INDEX 01 49:30:50
    TRACK 14 AUDIO
    TITLE “Tu amor ”
    PERFORMER “Roy White & Ryssa”
    INDEX 01 52:43:00
    TRACK 15 AUDIO
    TITLE ” Come To Me ”
    PERFORMER ” Northway”
    INDEX 01 54:42:00
    TRACK 16 AUDIO
    TITLE ” Regrete ”
    PERFORMER ” Dj Project ft Giulia ”
    INDEX 01 57:41:00
    TRACK 17 AUDIO
    TITLE ” One Love ”
    PERFORMER ” Morra ”
    INDEX 01 62:38:00
    TRACK 18 AUDIO
    TITLE “No Stress”
    PERFORMER “Liviu Hodor feat. Mona ”
    INDEX 01 66:12:00

Leave a Reply

Your email address will not be published. Required fields are marked *

eighteen − 3 =